[MagicStar] Re:复仇 - 在欲望的尽头 - / Re:リベンジ - 欲望の果てに - EP04 [WEBDL] [1080p] [FOD]【生】【附日字】

最后更新:2024-05-15 02:02 出处:网络

簡介: 
HD 1080p from FOD.
Japanese subtitles added.
Support Us Ali (Zhifubao / QR code): https://i.ibb.co/FWV2ggm/1660626347125.png
PayPalMe: https://www.paypal.com/paypalme/sakuragikenji
BTC (USDT): 19y5NF6voysif7PeJLv86Hf186ZS1i4rwu
ETH: 0x807B4eec355Cfa65500BeE65A992a9a0d8432697
LTC: LUC2dTQkte7muv5oUUuRNJimLJvi9pgZUQ

[MagicStar] Re:复仇 - 在欲望的尽头 - / Re:リベンジ - 欲望の果てに - EP04 [WEBDL] [1080p] [FOD]【生】【附日字】


[MagicStar] Re:复仇 - 在欲望的尽头 - / Re:リベンジ - 欲望の果てに - EP04 [WEBDL] [1080p] [FOD]【生】【附日字】

General Unique ID : 66541443170525538155081775867110324220 (0x320F6A7181E5CB6BB00BDDB7F91B77FC) Complete name : Re.Revenge.Yokubou.no.Hate.ni.EP04.1080p.FOD.WEB-DL.AAC2.0.H.264-MagicStar.mkv Format : Matroska Format version : Version 4 File size : 775 MiB Duration : 46 min 24 s Overall bit rate mode : Variable Overall bit rate : 2 336 kb/s Frame rate : 29.970 FPS Encoded date : 2024-05-03 10:43:06 UTC Writing application : mkvmerge v50.0.0 ('Awakenings') 64-bit Writing library : libebml v1.4.0 + libmatroska v1.6.2 Video ID : 1 Format : AVC Format/Info : Advanced Video Codec Format profile : [email protected] Format settings : CABAC / 2 Ref Frames Format settings, CABAC : Yes Format settings, Reference fra : 2 frames Codec ID : V_MPEG4/ISO/AVC Duration : 46 min 24 s Bit rate mode : Variable Bit rate : 2 141 kb/s Maximum bit rate : 15.0 Mb/s Width : 1 920 pixels Height : 1 080 pixels Display aspect ratio : 16:9 Frame rate mode : Constant Frame rate : 29.970 (29970/1000) FPS Original frame rate : 29.970 (30000/1001) FPS Color space : YUV Chroma subsampling : 4:2:0 Bit depth : 8 bits Scan type : Progressive Bits/(Pixel*Frame) : 0.034 Stream size : 711 MiB (92%) Default : Yes Forced : No Audio ID : 2 Format : AAC LC Format/Info : Advanced Audio Codec Low Complexity Codec ID : A_AAC-2 Duration : 46 min 24 s Bit rate : 192 kb/s Channel(s) : 2 channels Channel layout : L R Sampling rate : 48.0 kHz Frame rate : 46.875 FPS (1024 SPF) Compression mode : Lossy Stream size : 63.7 MiB (8%) Title : 日本語 [オリジナル] Language : Japanese Default : Yes Forced : No
--> Magnet連接: magnet:?xt=urn:btih:LIE4ANJMVCI5WMUSQJXKBRGNUUGGLO4K

Magnet連接typeII: magnet:?xt=urn:btih:5a09c0352ca891db3292826ea0c4cda50c65bb8a


[北宇治字幕组] GIRLS BAND CRY [08][WebRip][HEVC_AAC][简体内嵌]

[ANi] THE NEW GATE / THE NEW GATE - 07 [1080P][Baha][WEB-DL][AAC AVC][CHT][MP4]

[ANi] Sasayaku Yō ni Koi wo Utau / 恰如細語般的戀歌 - 07 [1080P][Baha][WEB-DL][AAC AVC][CHT][MP4]

[萌樱字幕组&霜庭云花Sub][吹响吧!上低音号 第三季 / Hibike! Euphonium 3][07][1080P][AVC AAC][简日双语][WebRip]

[萌樱字幕组&霜庭云花Sub][吹響吧!上低音號 第三季 / Hibike! Euphonium 3][07][1080P][AVC AAC][繁日双语][WebRip]

【豌豆字幕组】[黑执事 寄宿学校篇 / Kuroshitsuji_Kishuku Gakkou-hen][07][简体][1080P][MP4]

【豌豆字幕組】[黑執事 寄宿學校篇 / Kuroshitsuji_Kishuku Gakkou-hen][07][繁體][1080P][MP4]

[桜都字幕组] 为美好的世界献上祝福!3 / Kono Subarashii Sekai ni Shukufuku wo! 3 [07][1080p@60fps][简繁内封]

【喵萌奶茶屋】★04月新番★[恋语轻唱 / 恰如细语般的恋歌 / ささやくように恋を唄う / Sasayaku You ni Koi wo Utau][07][1080p][简日双语][招募翻译时轴]

[ANi] Kingdom S05 / 王者天下 第五季 - 10 [1080P][Baha][WEB-DL][AAC AVC][CHT][MP4]