[MagicStar] 25点,赤坂见 / 25時、赤坂で EP03 [WEBDL] [1080p] [U-NEXT]【生】【附日字】

最后更新:2024-05-15 02:02 出处:网络

簡介: 
HD 1080p from U-NEXT.
Japanese subtitles added.
We are planning to upload all U-NEXT Dramas and Movies, we need your Support!
Support Us Ali (Zhifubao / QR code): https://i.ibb.co/FWV2ggm/1660626347125.png
PayPalMe: https://www.paypal.com/paypalme/sakuragikenji
BTC (USDT): 19y5NF6voysif7PeJLv86Hf186ZS1i4rwu
ETH: 0x807B4eec355Cfa65500BeE65A992a9a0d8432697
LTC: LUC2dTQkte7muv5oUUuRNJimLJvi9pgZUQ

[MagicStar] 25点,赤坂见 / 25時、赤坂で EP03 [WEBDL] [1080p] [U-NEXT]【生】【附日字】


[MagicStar] 25点,赤坂见 / 25時、赤坂で EP03 [WEBDL] [1080p] [U-NEXT]【生】【附日字】

General Unique ID : 76286321503642497577870212800889993734 (0x3964360A329035587A78EA3FE30FBA06) Complete name : 25.ji.Akasaka.de.EP03.1080p.U-NEXT.WEB-DL.AAC2.0.H.264-MagicStar.mkv Format : Matroska Format version : Version 4 File size : 720 MiB Duration : 24 min 2 s Overall bit rate : 4 188 kb/s Frame rate : 23.976 FPS Encoded date : 2024-05-03 01:41:58 UTC Writing application : mkvmerge v50.0.0 ('Awakenings') 64-bit Writing library : libebml v1.4.0 + libmatroska v1.6.2 Cover : Yes Attachments : cover.png Video ID : 1 Format : AVC Format/Info : Advanced Video Codec Format profile : Main@L4 Format settings : CABAC / 3 Ref Frames Format settings, CABAC : Yes Format settings, Reference fra : 3 frames Codec ID : V_MPEG4/ISO/AVC Duration : 24 min 1 s Bit rate : 4 052 kb/s Width : 1 920 pixels Height : 1 080 pixels Display aspect ratio : 16:9 Frame rate mode : Constant Frame rate : 23.976 (24000/1001) FPS Color space : YUV Chroma subsampling : 4:2:0 Bit depth : 8 bits Scan type : Progressive Bits/(Pixel*Frame) : 0.082 Stream size : 695 MiB (97%) Writing library : x264 core 164 Encoding settings : cabac=1 / ref=3 / deblock=1:-1:-1 / analyse=0x1:0x111 / me=hex / subme=4 / psy=1 / psy_rd=1.00:0.15 / mixed_ref=0 / me_range=16 / chroma_me=1 / trellis=1 / 8x8dct=0 / cqm=0 / deadzone=21,11 / fast_pskip=1 / chroma_qp_offset=-1 / threads=12 / lookahead_threads=3 / sliced_threads=0 / nr=0 / decimate=1 / interlaced=0 / bluray_compat=0 / constrained_intra=0 / bframes=2 / b_pyramid=0 / b_adapt=2 / b_bias=0 / direct=3 / weightb=1 / open_gop=0 / weightp=1 / keyint=48 / keyint_min=25 / scenecut=0 / intra_refresh=0 / rc_lookahead=20 / rc=2pass / mbtree=1 / bitrate=4052 / ratetol=1.0 / qcomp=0.60 / qpmin=0 / qpmax=69 / qpstep=4 / cplxblur=20.0 / qblur=0.5 / vbv_maxrate=8050 / vbv_bufsize=8050 / nal_hrd=none / filler=0 / ip_ratio=1.40 / aq=1:1.00 Language : English Default : Yes Forced : No Audio ID : 2 Format : AAC LC Format/Info : Advanced Audio Codec Low Complexity Codec ID : A_AAC-2 Duration : 24 min 2 s Bit rate : 128 kb/s Channel(s) : 2 channels Channel layout : L R Sampling rate : 48.0 kHz Frame rate : 46.875 FPS (1024 SPF) Compression mode : Lossy Stream size : 22.0 MiB (3%) Title : 日本語 [オリジナル] Language : Japanese Default : Yes Forced : No
--> Magnet連接: magnet:?xt=urn:btih:SUSRSK3GDJM6I2LZPXQGWFKUINRXBQZJ

Magnet連接typeII: magnet:?xt=urn:btih:9525192b661a59e469797de06b1554436370c329


[北宇治字幕组] GIRLS BAND CRY [08][WebRip][HEVC_AAC][简体内嵌]

[ANi] THE NEW GATE / THE NEW GATE - 07 [1080P][Baha][WEB-DL][AAC AVC][CHT][MP4]

[ANi] Sasayaku Yō ni Koi wo Utau / 恰如細語般的戀歌 - 07 [1080P][Baha][WEB-DL][AAC AVC][CHT][MP4]

[萌樱字幕组&霜庭云花Sub][吹响吧!上低音号 第三季 / Hibike! Euphonium 3][07][1080P][AVC AAC][简日双语][WebRip]

[萌樱字幕组&霜庭云花Sub][吹響吧!上低音號 第三季 / Hibike! Euphonium 3][07][1080P][AVC AAC][繁日双语][WebRip]

【豌豆字幕组】[黑执事 寄宿学校篇 / Kuroshitsuji_Kishuku Gakkou-hen][07][简体][1080P][MP4]

【豌豆字幕組】[黑執事 寄宿學校篇 / Kuroshitsuji_Kishuku Gakkou-hen][07][繁體][1080P][MP4]

[桜都字幕组] 为美好的世界献上祝福!3 / Kono Subarashii Sekai ni Shukufuku wo! 3 [07][1080p@60fps][简繁内封]

【喵萌奶茶屋】★04月新番★[恋语轻唱 / 恰如细语般的恋歌 / ささやくように恋を唄う / Sasayaku You ni Koi wo Utau][07][1080p][简日双语][招募翻译时轴]

[ANi] Kingdom S05 / 王者天下 第五季 - 10 [1080P][Baha][WEB-DL][AAC AVC][CHT][MP4]