[MagicStar] 特搜9 第七季 / Tokusou 9 Season7 EP05 [WEBDL] [1080p]【生】【附日字】

最后更新:2024-05-15 02:02 出处:网络

簡介: 
HD 1080p from TVer.
Japanese subtitles added.

[MagicStar] 特搜9 第七季 / Tokusou 9 Season7 EP05 [WEBDL] [1080p]【生】【附日字】


[MagicStar] 特搜9 第七季 / Tokusou 9 Season7 EP05 [WEBDL] [1080p]【生】【附日字】

General Unique ID : 285768125836955909667592945698796613912 (0xD6FCF066E597E23E15873E33CE8A3118) Complete name : [MagicStar] Tokusou 9 Season7 EP05 [WEBDL] [1080p].mkv Format : Matroska Format version : Version 4 File size : 923 MiB Duration : 44 min 58 s Overall bit rate : 2 869 kb/s Frame rate : 29.970 FPS Encoded date : 2024-05-02 10:37:47 UTC Writing application : mkvmerge v50.0.0 ('Awakenings') 64-bit Writing library : libebml v1.4.0 + libmatroska v1.6.2 Video ID : 1 Format : AVC Format/Info : Advanced Video Codec Format profile : High@L4 Format settings : CABAC / 4 Ref Frames Format settings, CABAC : Yes Format settings, Reference fra : 4 frames Codec ID : V_MPEG4/ISO/AVC Duration : 44 min 58 s Bit rate : 2 675 kb/s Width : 1 920 pixels Height : 1 080 pixels Display aspect ratio : 16:9 Frame rate mode : Constant Frame rate : 29.970 (29970/1000) FPS Original frame rate : 29.970 (30000/1001) FPS Color space : YUV Chroma subsampling : 4:2:0 Bit depth : 8 bits Scan type : Progressive Bits/(Pixel*Frame) : 0.043 Stream size : 860 MiB (93%) Default : Yes Forced : No Color range : Limited Matrix coefficients : BT.709 Audio ID : 2 Format : AAC LC Format/Info : Advanced Audio Codec Low Complexity Codec ID : A_AAC-2 Duration : 44 min 58 s Bit rate : 192 kb/s Channel(s) : 2 channels Channel layout : L R Sampling rate : 48.0 kHz Frame rate : 46.875 FPS (1024 SPF) Compression mode : Lossy Stream size : 61.7 MiB (7%) Title : 日本語 [オリジナル] Language : Japanese Default : Yes Forced : No
--> Magnet連接: magnet:?xt=urn:btih:DPNXOCVVYU2ZMPKHSMUFK4XNGSZXRT5W

Magnet連接typeII: magnet:?xt=urn:btih:1bdb770ab5c535963d4793285572ed34b378cfb6


[北宇治字幕组] GIRLS BAND CRY [08][WebRip][HEVC_AAC][简体内嵌]

[ANi] THE NEW GATE / THE NEW GATE - 07 [1080P][Baha][WEB-DL][AAC AVC][CHT][MP4]

[ANi] Sasayaku Yō ni Koi wo Utau / 恰如細語般的戀歌 - 07 [1080P][Baha][WEB-DL][AAC AVC][CHT][MP4]

[萌樱字幕组&霜庭云花Sub][吹响吧!上低音号 第三季 / Hibike! Euphonium 3][07][1080P][AVC AAC][简日双语][WebRip]

[萌樱字幕组&霜庭云花Sub][吹響吧!上低音號 第三季 / Hibike! Euphonium 3][07][1080P][AVC AAC][繁日双语][WebRip]

【豌豆字幕组】[黑执事 寄宿学校篇 / Kuroshitsuji_Kishuku Gakkou-hen][07][简体][1080P][MP4]

【豌豆字幕組】[黑執事 寄宿學校篇 / Kuroshitsuji_Kishuku Gakkou-hen][07][繁體][1080P][MP4]

[桜都字幕组] 为美好的世界献上祝福!3 / Kono Subarashii Sekai ni Shukufuku wo! 3 [07][1080p@60fps][简繁内封]

【喵萌奶茶屋】★04月新番★[恋语轻唱 / 恰如细语般的恋歌 / ささやくように恋を唄う / Sasayaku You ni Koi wo Utau][07][1080p][简日双语][招募翻译时轴]

[ANi] Kingdom S05 / 王者天下 第五季 - 10 [1080P][Baha][WEB-DL][AAC AVC][CHT][MP4]