[MagicStar] 被买的男人 / 買われた男 EP04 [WEBDL] [1080p] [DMM-TV] [V0]【生】【附EP03日字】

最后更新:2024-05-15 02:02 出处:网络

簡介: 
HD 1080p from DMM TV.
Episode.3 Japanese subtitles added.
We are planning to upload all DMM TV Dramas and Movies, we need your Support!
Support Us Ali (Zhifubao / QR code): https://i.ibb.co/FWV2ggm/1660626347125.png
PayPalMe: https://www.paypal.com/paypalme/sakuragikenji
BTC (USDT): 19y5NF6voysif7PeJLv86Hf186ZS1i4rwu
ETH: 0x807B4eec355Cfa65500BeE65A992a9a0d8432697
LTC: LUC2dTQkte7muv5oUUuRNJimLJvi9pgZUQ

[MagicStar] 被买的男人 / 買われた男 EP04 [WEBDL] [1080p] [DMM-TV] [V0]【生】【附EP03日字】


[MagicStar] 被买的男人 / 買われた男 EP04 [WEBDL] [1080p] [DMM-TV] [V0]【生】【附EP03日字】

General Unique ID : 185342442346814553927797667556011223316 (0x8B6FA7ED87804766F1A51DA985A32914) Complete name : Kawareta.Otoko.EP04.1080p.DMM-TV.WEB-DL.AAC2.0.H.264.V0-MagicStar.mkv Format : Matroska Format version : Version 4 File size : 1.39 GiB Duration : 23 min 24 s Overall bit rate : 8 487 kb/s Frame rate : 23.976 FPS Encoded date : 2024-05-02 09:59:30 UTC Writing application : mkvmerge v50.0.0 ('Awakenings') 64-bit Writing library : libebml v1.4.0 + libmatroska v1.6.2 Cover : Yes Attachments : cover.png Video ID : 1 Format : AVC Format/Info : Advanced Video Codec Format profile : High@L4 Format settings : CABAC / 1 Ref Frames Format settings, CABAC : Yes Format settings, Reference fra : 1 frame Format settings, GOP : M=1, N=24 Codec ID : V_MPEG4/ISO/AVC Duration : 23 min 24 s Bit rate mode : Constant Bit rate : 8 222 kb/s Width : 1 920 pixels Height : 1 080 pixels Display aspect ratio : 16:9 Frame rate mode : Constant Frame rate : 23.976 (24000/1001) FPS Color space : YUV Chroma subsampling : 4:2:0 Bit depth : 8 bits Scan type : Progressive Bits/(Pixel*Frame) : 0.165 Stream size : 1.34 GiB (97%) Default : Yes Forced : No Color range : Limited Color primaries : BT.709 Transfer characteristics : BT.709 Matrix coefficients : BT.709 Audio ID : 2 Format : AAC LC Format/Info : Advanced Audio Codec Low Complexity Codec ID : A_AAC-2 Duration : 23 min 24 s Bit rate : 256 kb/s Channel(s) : 2 channels Channel layout : L R Sampling rate : 48.0 kHz Frame rate : 46.875 FPS (1024 SPF) Compression mode : Lossy Stream size : 42.9 MiB (3%) Title : 日本語 [オリジナル] Language : Japanese Default : Yes Forced : No
--> Magnet連接: magnet:?xt=urn:btih:XCRX4D6A3VWJXGSS5YHLFGBZM2ALLUF7

Magnet連接typeII: magnet:?xt=urn:btih:b8a37e0fc0dd6c9b9a52ee0eb298396680b5d0bf


[北宇治字幕组] GIRLS BAND CRY [08][WebRip][HEVC_AAC][简体内嵌]

[ANi] THE NEW GATE / THE NEW GATE - 07 [1080P][Baha][WEB-DL][AAC AVC][CHT][MP4]

[ANi] Sasayaku Yō ni Koi wo Utau / 恰如細語般的戀歌 - 07 [1080P][Baha][WEB-DL][AAC AVC][CHT][MP4]

[萌樱字幕组&霜庭云花Sub][吹响吧!上低音号 第三季 / Hibike! Euphonium 3][07][1080P][AVC AAC][简日双语][WebRip]

[萌樱字幕组&霜庭云花Sub][吹響吧!上低音號 第三季 / Hibike! Euphonium 3][07][1080P][AVC AAC][繁日双语][WebRip]

【豌豆字幕组】[黑执事 寄宿学校篇 / Kuroshitsuji_Kishuku Gakkou-hen][07][简体][1080P][MP4]

【豌豆字幕組】[黑執事 寄宿學校篇 / Kuroshitsuji_Kishuku Gakkou-hen][07][繁體][1080P][MP4]

[桜都字幕组] 为美好的世界献上祝福!3 / Kono Subarashii Sekai ni Shukufuku wo! 3 [07][1080p@60fps][简繁内封]

【喵萌奶茶屋】★04月新番★[恋语轻唱 / 恰如细语般的恋歌 / ささやくように恋を唄う / Sasayaku You ni Koi wo Utau][07][1080p][简日双语][招募翻译时轴]

[ANi] Kingdom S05 / 王者天下 第五季 - 10 [1080P][Baha][WEB-DL][AAC AVC][CHT][MP4]